#TITLE:Vanessa;
#SUBTITLE:;
#ARTIST:Suzaku;
#TITLETRANSLIT:;
#SUBTITLETRANSLIT:;
#ARTISTTRANSLIT:;
#CREDIT:;
#BANNER:Vanessa_banner.jpg;
#BACKGROUND:Vanessa_bg.jpg;
#LYRICSPATH:;
#CDTITLE:PsYKoTx_title.jpg;
#MUSIC:Vanessa.ogg;
#OFFSET:-0.220;
#SAMPLESTART:11.872;
#SAMPLELENGTH:12.960;
#SELECTABLE:YES;
#BPMS:0.000=185.000;
#STOPS:;
#BGCHANGES:;
// cache tags:
#FIRSTBEAT:0.000;
#LASTBEAT:280.333;
#SONGFILENAME:Songs/Music V.I.P ^_^/Vanessa - Suzaku/Vanessa.sm;
#HASMUSIC:1;
#HASBANNER:1;
#MUSICLENGTH:93.253;
// end cache tags

//---------------dance-single - ----------------
#NOTES:
     dance-single:
     :
     Hard:
     13:
     1.000,1.000,1.000,0.064,1.000,707.000,231.000,6.000,0.000,13.000:
1001
0000
1001
0000
,
1001
0000
0000
0000
1001
0000
0000
0110
,
1001
0000
1001
0000
,
1001
0000
0000
0000
0000
0000
1001
0000
0000
0010
0000
0110
,
1001
0000
0000
1001
0000
0110
1001
0000
0000
1001
0000
0110
,
1001
0000
0000
1001
0000
0110
1001
0000
0010
1001
0100
0010
,
1001
0010
1000
0001
0010
1000
0001
0010
1000
0001
0010
1000
,
0011
0011
0011
0011
0011
0011
1001
1001
1001
1001
1001
1001
,
0020
0230
0300
0001
0002
0000
0000
0000
0000
0003
0000
0000
,
1000
0100
0010
0001
0010
0100
1000
0010
0100
0001
0010
1000
,
0101
0010
0100
1100
0010
0100
0101
0010
0100
1100
0010
0100
,
0101
0010
0100
1100
0010
0100
0101
1000
0100
0001
0010
0100
,
1010
0010
0100
0011
0010
0100
1010
0010
0100
0011
0010
0100
,
1010
0010
0100
0011
0010
0100
1010
0001
0010
1000
0100
0001
,
1100
0010
1000
0101
0010
1000
0011
0100
0001
1010
0100
0010
,
1100
0001
0100
1010
0100
1000
0011
1000
0010
0101
1000
0010
,
1001
0100
0010
0001
0010
1000
0001
0100
0010
1000
0100
0010
,
1100
1100
1100
1000
0010
0001
1000
0010
0001
1000
0010
0001
,
1100
0010
0001
1010
0100
0001
1100
0010
0001
1010
0100
0001
,
1100
0010
0001
1010
0100
0001
1100
0010
0001
0100
1000
0010
,
0101
0010
1000
0011
0100
1000
0101
0010
1000
0011
0100
1000
,
0101
0010
1000
0011
0100
1000
0101
1000
0100
0001
0010
1000
,
0101
0010
1000
0011
0100
0001
1010
0100
0010
1100
0001
1000
,
0101
0010
1000
0110
0001
0100
1010
0001
0010
1100
0010
0100
,
1001
0010
1100
1001
0010
1100
1001
0010
1100
1001
0010
1100
,
0101
1001
0011
1001
0101
1001
0011
1001
0101
1001
0011
1001
,
0101
0010
1000
0010
0000
0000
0000
0000
0000
0100
0001
0100
,
0010
1000
0010
0100
0001
0100
1000
0010
0100
0010
0001
0010
,
0100
1000
0100
0010
0000
0000
0000
0000
0000
1000
0100
0001
,
1000
0100
0001
1000
0100
0001
0010
1000
0100
0001
0010
0100
,
1000
0010
0001
0100
0010
0001
1000
0010
0001
0100
0010
0001
,
1000
0100
0010
0100
0010
0001
0010
0001
1000
0001
1000
0010
,
0100
0010
0001
1000
0010
0001
0100
0010
0001
1000
0010
0001
,
1000
0100
0010
0100
0010
0001
0010
0001
1000
0001
1000
0010
,
1001
0100
1000
0010
0000
0000
0000
0000
0000
0001
0100
1000
,
0100
0010
0001
0100
0010
1000
0001
0010
0100
1000
0010
0100
,
1000
0001
1000
0010
0000
0000
0000
0000
0000
0001
0100
0010
,
0001
0100
0010
0001
0100
0010
0001
1000
0010
0001
0100
1000
,
0001
0010
0100
0010
0100
1000
0100
1000
0001
1000
0001
0010
,
0001
0010
0100
0010
0100
1000
0100
1000
0001
1000
0001
0100
,
0010
1000
0010
0001
0010
1000
0010
0001
0010
1000
0010
0001
,
1100
1100
1100
0001
0100
1000
0010
0001
0100
1000
0010
0001
,
1001
0000
0000
0000
0000
0000
0000
0000
0000
1001
0000
0011
,
0100
0100
0100
1001
0000
0011
0000
0000
0000
0110
0000
1100
,
0101
0000
0011
1010
0000
0000
0110
0000
0000
1001
0000
0110
,
1001
0000
0010
1100
0000
0010
0101
0000
0010
1001
0000
0010
,
1001
0010
1000
0101
0010
0100
1001
0010
1000
0101
0010
0001
,
1100
1100
1100
1001
0100
0010
0001
0010
0001
1100
1100
1100
,
0011
0011
0011
1100
1100
1100
0101
0101
0101
1100
1100
1100
,
1101
1101
1101
1101
1101
1101
1011
1011
1011
1011
1011
1011
,
1001
0100
0010
1000
0100
0010
1000
0010
0001
0100
0010
0001
,
1100
0010
1000
0101
0010
0001
1100
0010
1000
0101
0010
0001
,
1100
0010
1000
0101
0010
0001
1100
0010
0001
0100
1000
0010
,
0101
0010
1000
0011
0100
1000
0101
0010
1000
0011
0100
1000
,
0101
0010
1000
0011
0100
1000
0101
0010
1000
0100
0001
0010
,
1001
0100
1000
0011
0100
0001
1010
0100
1000
0011
0100
0010
,
1001
0100
1000
0011
0100
0001
1010
0100
1000
0011
0100
0010
,
1001
0100
0010
0100
0010
0001
0010
0001
1000
0001
1000
0010
,
1100
1100
1100
0010
0001
1000
0010
0001
1000
0100
0001
0100
,
1001
0010
1000
0110
0001
0010
1001
0010
1000
0110
0001
0010
,
1001
0010
1000
0110
0001
0010
1001
0100
0001
0010
1000
0100
,
0101
0010
0100
1010
0100
0010
0101
0010
0100
1010
0100
0010
,
0101
0010
0100
1010
0100
0010
0101
1000
0010
0001
0100
0010
,
1001
0100
1000
0101
0010
0001
1100
0010
1000
0101
1000
0110
,
1001
0100
1000
0011
0100
0001
1010
0100
1000
0011
1000
0110
,
1001
0100
0011
1001
0100
0011
1001
0100
0011
1001
0100
0011
,
1001
0101
1001
0011
1001
0101
1001
1100
1001
1010
1001
1100
,
0020
0000
0000
0000
,
2132
0000
0000
0000
,
0000
0000
0000
0000
,
0000
3003
0000
0000
0000
0000
0000
0000
0000
0000
0000
0000
;

//---------------dance-single - ----------------
#NOTES:
     dance-single:
     :
     Challenge:
     14:
     1.000,1.000,1.000,0.107,1.000,762.000,286.000,10.000,0.000,13.000:
1001
0000
1001
0000
,
1001
0000
0000
0000
1001
0000
0000
0110
,
1001
0000
1001
0000
,
1001
0000
0000
0000
0000
0000
1001
0000
0000
0010
0000
0110
,
1001
0000
0000
1001
0000
0110
1001
0000
0000
1001
0000
0110
,
1001
0000
0000
1001
0000
0110
1001
0000
0010
1001
0100
0010
,
1001
0010
1000
0001
0010
1000
0001
0010
1000
0001
0010
1000
,
0011
0011
0011
0011
0011
0011
1001
1001
1001
1001
1001
1001
,
0020
0030
0200
0000
0000
0300
0200
0300
0002
0000
0000
0000
0000
0000
0000
0000
0000
0000
0000
0000
0000
0000
0000
0000
,
1003
0100
0010
0001
0010
0100
1000
0010
0100
0011
0100
1010
,
0101
0000
0010
0000
0100
0000
1100
0000
0010
0000
0100
0000
0101
0000
0010
0000
0100
0000
1100
0000
0010
0000
0100
1000
,
0101
0000
0010
0000
0100
0000
1100
0000
0010
0000
0100
0000
0101
0000
1000
0000
0100
0010
1001
0000
0010
0000
0100
0001
,
1010
0010
0100
0011
0010
0100
1010
0010
0100
0011
0010
0100
,
1010
0100
0001
1000
0010
0000
0011
0000
0010
0000
0100
0000
1010
0100
0001
0010
0100
0000
0011
0000
0100
0000
0001
0000
,
1100
0000
0010
0000
1000
0000
0101
0000
0010
0000
1000
0000
0011
0000
0100
0000
0001
0000
1010
0000
0100
0000
0010
0001
,
1100
0000
0001
0000
0100
0000
1010
0000
0100
0000
1000
0000
0011
0000
1000
0000
0010
1000
0101
0000
1000
0000
0010
0100
,
1001
0100
0010
0101
0010
0110
1100
0001
0010
0101
1000
0010
,
1100
1100
1100
1000
0010
0001
1000
0010
0001
1100
0010
0011
,
1100
0000
0010
0000
0001
0000
1010
0000
0100
0000
0001
0000
1100
0000
0010
0000
0001
0000
1010
0000
0100
0000
0001
0010
,
1100
0000
0010
0000
0001
0000
1010
0000
0100
0000
0001
0000
1100
0000
0010
0000
0001
0010
1100
0000
1000
0000
0010
1000
,
0101
0010
1000
0011
0100
1000
0101
0010
1000
0011
0100
1000
,
0101
0000
0010
0000
1000
0000
0011
0000
0100
0000
1000
0000
0101
0010
1000
0001
0100
0000
0101
1000
0010
0100
0001
0000
,
0101
0000
0010
0000
1000
0000
0011
0000
0100
0000
0001
0000
1010
0000
0100
0000
0010
0000
1100
0000
0001
0000
1000
0010
,
0101
0000
0010
0000
1000
0000
0110
0000
0001
0000
0100
0000
1010
0000
0001
0000
0010
0001
1100
0000
0010
0000
0100
0010
,
1001
0010
1100
1001
0010
1100
1001
0010
1100
1001
0010
1100
,
0101
1001
0011
1001
0101
1001
0011
1001
0101
1001
0011
1001
,
0101
0010
1000
0010
0000
0000
1100
0000
0000
0100
0001
0100
,
0011
1000
0010
0100
0001
0100
1001
0010
0100
0010
0001
0010
,
0101
1000
0100
0010
0000
0000
1100
0000
0000
1000
0100
0001
,
1010
0100
0001
1000
0100
0001
0110
1000
0100
0001
0010
0100
,
1001
0010
0001
0100
0010
0001
1100
0010
0001
0100
0010
0001
,
1010
0100
0010
0100
0010
0001
1010
0001
1000
0001
1000
0001
,
1100
0010
0001
1000
0010
0001
1100
0010
0001
1000
0010
0001
,
1010
0100
0010
0100
0010
0001
0110
0001
1000
0001
1000
0010
,
1001
0100
1000
0010
0000
1000
1100
0000
0000
0001
0100
1000
,
0101
0010
0001
0100
0010
1000
0101
0010
0100
1000
0010
0100
,
1010
0001
1000
0010
0000
1000
1100
0000
0000
0001
0100
0010
,
1001
0100
0010
0001
0100
0010
0101
1000
0010
0001
0100
1000
,
0101
0010
0100
0010
0100
1000
0110
1000
0001
1000
0001
0010
,
1001
0010
0100
0010
0100
1000
0110
1000
0001
1000
0001
0100
,
0011
1000
0010
0001
0010
1000
0110
0001
0010
1000
0010
0001
,
1100
1100
1100
0001
0100
1000
0110
0001
0010
1100
0100
0010
,
1001
0000
0000
0000
0000
0000
0000
0000
0000
1001
0000
0011
,
0110
0110
0110
1001
0000
0011
0000
0000
0000
0110
0000
1100
,
0101
0000
0011
1010
0000
0000
0110
0000
0000
1001
0000
0110
,
1001
0000
0000
0000
0010
0000
1100
0000
0000
0000
0010
0000
0101
0010
1000
0001
0010
0000
1001
0100
0010
0001
0010
0000
,
1001
0010
1000
0101
0010
0100
1001
0010
1000
0101
0010
0001
,
1100
1100
1100
1001
0100
0010
0001
0010
0001
1100
1100
1100
,
0011
1001
0101
1010
1001
1100
0011
1001
0101
1010
1001
0110
,
1101
1101
1101
1101
1101
1101
1011
1011
1011
1011
1011
1011
,
1001
0100
0010
1000
0100
0010
1000
0010
0001
0110
0010
0001
,
1100
0000
0010
0000
1000
0000
0101
0000
0010
0000
0001
0000
1100
0000
0010
0000
1000
0000
0101
0000
0010
0000
0001
0010
,
1100
0000
0010
0000
1000
0000
0101
0000
0010
0000
0001
0000
1100
0000
0010
0000
0001
1000
0110
0000
1000
0000
0010
1000
,
0101
0010
1000
0011
0100
1000
0101
0010
1000
0011
0100
1000
,
0101
0000
0010
0000
1000
0000
0011
0000
0100
0000
1000
0000
0101
0000
0010
0000
1000
0001
0110
0000
0001
0000
0010
0100
,
1001
0000
0100
0000
1000
0000
0011
0000
0100
0000
0001
0000
1010
0000
0100
0000
1000
0000
0011
0000
0100
0000
0010
0100
,
1001
0000
0100
0000
1000
0000
0011
0000
0100
0000
0001
0000
1010
0000
0100
0000
1000
0100
0011
0000
0100
0000
0010
0100
,
1001
0000
0100
0000
0010
0000
1100
0001
0010
0000
0001
0000
1000
0001
0100
0010
1000
0000
1000
0010
0100
0001
0010
0000
,
1100
1100
1100
0010
0001
1000
0010
0001
1000
0110
0001
0110
,
1001
0000
0010
0000
1000
0000
0110
0000
0001
0000
0010
0000
1001
0000
0010
0000
1000
0000
0110
0000
0001
0000
0010
0100
,
1001
0000
0010
0000
1000
0000
0110
0000
0001
0000
0010
0000
1001
0000
0100
0000
0001
1000
0110
0000
1000
0000
0100
0010
,
0101
0010
0100
1010
0100
0010
0101
0010
0100
1010
0100
0010
,
0101
0000
0010
0000
0100
0000
1010
0000
0100
0000
0010
1000
0101
0000
1000
0000
0110
0000
0101
0000
1000
0000
0110
0000
,
1001
0000
0100
0000
1000
0000
0101
0000
0010
0000
0001
0000
1100
0000
0010
0000
1000
0000
0101
0000
0010
0000
1100
0010
,
1001
0000
0100
0000
1000
0000
0011
0000
0100
0000
0001
0000
1010
0000
0100
0000
1000
0100
0011
0000
1000
0000
1100
0010
,
1001
0100
0011
1001
0100
0011
1001
0100
0011
1001
0100
0011
,
1001
0101
1001
0011
1001
0101
1001
1100
1001
1010
1001
1100
,
0020
0030
0002
0000
0000
0003
0200
0300
0020
0000
0000
0000
0000
0000
0000
0000
0000
0000
0000
0000
0000
0000
0000
0000
,
2132
0000
0000
0000
,
0000
0000
0000
0000
,
0000
3003
0000
0000
0000
0000
0000
0000
0000
0000
0000
0000
;
